Boruto T1 [MicroHD 1080p WEB-DL][VOSE][600MB]2017[40/??][MULTI]
Preguntas Frecuentes Buscar Lista De Miembros Grupos Edita Tu Perfil Mensajes Privados Conectarse Registrarse
Indice Del Foro Normas y Reglas Del Foro Chat Enlaces Radio Online Referidos Rangos Del Foro Juegos Gratis

   Búsqueda Avanzada
Publicar Nuevo Tema   Responder al Tema -> Foros Anime y Manga  Foros Anime y Manga

Ver tema anterior Foro De Series De Tv Tema RSS Para recibir las ultimas noticias en tu email Ver siguiente tema
Autor Mensaje
frunfrun
5 Estrellas




Registrado: 18 Nov 2017
Mensajes: 206

spain.png



Desconectado
MensajePublicado: Mar Nov 21, 2017 2:44 am  Boruto T1 [MicroHD 1080p WEB-DL][VOSE][600MB]2017[40/??][MULTI] Responder citando Back to top



INFO DE LA SERIE:

Título original
BORUTO-ボルト- NARUTO NEXT GENERATIONS (TV Series)
Año
2017
Duración
22 min.
País
Japón Japón
Director
Noriyuki Abe, Hiroyuki Yamashita
Guion
Makoto Uezu (Manga: Masashi Kishimoto, Mikie Ikemoto, Ukyō Kodachi)
Música
KANA-BOON, The Peggies
Fotografía
Mai Masuno
Reparto
Animation
Productora
TV Tokyo
Género
Serie de TV. Animación. Comedia. Aventuras. Fantástico | Ninjas. Spin-off. Manga
Grupos
Naruto & Naruto Shippûden

SINOPSIS:

Esta es una secuela de las series de Naruto, la cual sigue la historia de Boruto el hijo de Naruto.
Boruto, el hijo del séptimo Hokage y el actual lider de la aldea, se ha matriculado en la academia ninja para aprender todo sobre lo que necesita saber en las artes ninjas. Los estudiantes que rodean a Boruto se refieren a él como “el hijo del Hokage”, pero Boruto con su peculiar personalidad se hará un nombre por él mismo.

CAPTURAS:

Spoiler:





MEDIA INFO:

Spoiler:

General
Unique ID : 227462762536135902567819870058063619095 (0xAB1FBC0C221CC54BB456C5E3A2186417)
Complete name : C:\Users\Desktop\Boruto - Naruto Next Generations 1x01 m1080p VOSE.mkv
Format : Matroska
Format version : Version 4 / Version 2
File size : 543 MiB
Duration : 23 min 53 s
Overall bit rate : 3 175 kb/s

Encoded date : UTC 2017-04-05 14:26:27
Writing application : mkvmerge v7.7.0 ('Six Voices') 32bit built on Feb 28 2015 23:23:00
Writing library : libebml v1.3.1 + libmatroska v1.4.2

Video
ID : 1
Format : AVC
Format/Info : Advanced Video Codec
Format profile : Main@L4.1
Format settings, CABAC : Yes
Format settings, ReFrames : 4 frames
Codec ID : V_MPEG4/ISO/AVC
Duration : 23 min 53 s
Bit rate : 3 000 kb/s
Width : 1 920 pixels
Height : 1 080 pixels
Display aspect ratio : 16:9
Frame rate mode : Constant
Frame rate : 23.976 (24000/1001) FPS
Color space : YUV
Chroma subsampling : 4:2:0
Bit depth : 8 bits
Scan type : Progressive
Bits/(Pixel*Frame) : 0.060
Stream size : 510 MiB (94%)
Title :
Writing library : x264 core 142 r2479 dd79a61
Encoding settings : cabac=1 / ref=1 / deblock=1:0:0 / analyse=0x1:0x111 / me=hex / subme=2 / psy=1 / psy_rd=1.00:0.00 / mixed_ref=0 / me_range=16 / chroma_me=1 / trellis=0 / 8x8dct=0 / cqm=0 / deadzone=21,11 / fast_pskip=1 / chroma_qp_offset=0 / threads=36 / lookahead_threads=8 / sliced_threads=0 / nr=0 / decimate=1 / interlaced=0 / bluray_compat=0 / constrained_intra=0 / bframes=3 / b_pyramid=2 / b_adapt=1 / b_bias=0 / direct=1 / weightb=1 / open_gop=0 / weightp=1 / keyint=240 / keyint_min=24 / scenecut=40 / intra_refresh=0 / rc_lookahead=10 / rc=abr / mbtree=1 / bitrate=3000 / ratetol=1.0 / qcomp=0.60 / qpmin=0 / qpmax=69 / qpstep=4 / vbv_maxrate=50000 / vbv_bufsize=62500 / nal_hrd=none / filler=0 / ip_ratio=1.40 / aq=1:1.00
Default : Yes
Forced : No
Color range : Limited
Color primaries : BT.709
Transfer characteristics : BT.709
Matrix coefficients : BT.709

Audio
ID : 2
Format : AC-3
Format/Info : Audio Coding 3
Mode extension : CM (complete main)
Format settings, Endianness : Big
Codec ID : A_AC3
Duration : 23 min 53 s
Bit rate mode : Constant
Bit rate : 192 kb/s
Channel(s) : 2 channels
Channel positions : Front: L R
Sampling rate : 48.0 kHz
Frame rate : 31.250 FPS (1536 spf)
Bit depth : 16 bits
Compression mode : Lossy
Delay relative to video : -5 ms
Stream size : 32.8 MiB (6%)
Language : Japanese
Default : Yes
Forced : No





Ripeo y sincro: frunfrun
Calidad: WEB-DL m1080p
Codecs: AVC x264 | 1800kbps | High@L5.1 | 4 marcos / AC3 | 192kbps | 2canales
Contenedor: MKV
Idioma: Japones con subtitulos en español
Imagen: 1920x 1080
Tamaño: 600 mb



Boruto: Naruto Next Generations 1X01 y 1x02

Código:
http://ouo.io/rG5R22k


Boruto: Naruto Next Generations 1X03

Código:
http://ouo.io/Ll60l


Boruto: Naruto Next Generations 1X04

Código:
http://ouo.io/7sQZXz


Boruto: Naruto Next Generations 1X05

Código:
http://ouo.io/z7O3O6


Boruto: Naruto Next Generations 1X06

Código:
http://ouo.io/lEXvch


Boruto: Naruto Next Generations 1X07

Código:
http://ouo.io/TuEuKS


Boruto: Naruto Next Generations 1X08

Código:
http://ouo.io/Fqbqzt


Boruto: Naruto Next Generations 1X09 y 1x10

Código:
http://ouo.io/LGpbgj


Boruto: Naruto Next Generations 1X11 y 1x12

Código:
http://ouo.io/EI2Zxr


Boruto: Naruto Next Generations 1X13,1x14 y 1x15

Código:
http://ouo.io/4LeSHf


Boruto: Naruto Next Generations 1X16 y 1x17

Código:
http://ouo.io/uJ11dB


Boruto: Naruto Next Generations 1X18 a 1x21

Código:
https://www.keeplinks.eu/p67/59a1009c2e9d9


Boruto: Naruto Next Generations 1X22 a 1x24

Código:
https://www.keeplinks.eu/p67/59cbe1c23a66d


Boruto: Naruto Next Generations 1X25 a 1x27

Código:
http://ouo.io/gvATix


Boruto: Naruto Next Generations 1X28 y 1x29

Código:
http://ouo.io/IghcIp


Boruto: Naruto Next Generations 1X30

Código:
http://ouo.io/hP8G2y


Boruto: Naruto Next Generations 1X31

Código:
http://ouo.io/c5avW1


Boruto: Naruto Next Generations 1x32 y 1x33

Código:
http://ouo.io/Iich4p


Boruto: Naruto Next Generations 1x34

Código:
http://ouo.io/Q8mCp


Boruto: Naruto Next Generations 1x35

Código:
http://ouo.io/aJKGCn


Boruto: Naruto Next Generations 1x36

Código:
http://ouo.io/3jgcYP


Boruto: Naruto Next Generations 1x37

Código:
http://ouo.io/f2HqIp


Boruto: Naruto Next Generations 1x38

Código:
http://ouo.io/wHPQ5f


Boruto: Naruto Next Generations 1x39

Código:
http://ouo.io/NcEMHZ


Boruto: Naruto Next Generations 1x40

Código:
http://ouo.io/waWSOJ




Ultima edición por frunfrun el Dom Ene 14, 2018 12:05 am; editado 6 veces
Ver perfil del usuario Enviar mensaje privado
frunfrun
5 Estrellas




Registrado: 18 Nov 2017
Mensajes: 206

spain.png



Desconectado
MensajePublicado: Jue Nov 23, 2017 12:44 am  Re: Boruto T1 [MicroHD 1080p WEB-DL][VOSE][600MB]2017[40/??][MULTI] Responder citando Back to top

Añadido Boruto: Naruto Next Generations 1x34
Ver perfil del usuario Enviar mensaje privado
frunfrun
5 Estrellas




Registrado: 18 Nov 2017
Mensajes: 206

spain.png



Desconectado
MensajePublicado: Vie Dic 01, 2017 12:12 pm  Re: Boruto T1 [MicroHD 1080p WEB-DL][VOSE][600MB]2017[40/??][MULTI] Responder citando Back to top

Añadido Boruto: Naruto Next Generations 1x35
Ver perfil del usuario Enviar mensaje privado
frunfrun
5 Estrellas




Registrado: 18 Nov 2017
Mensajes: 206

spain.png



Desconectado
MensajePublicado: Sab Dic 09, 2017 1:25 pm  Re: Boruto T1 [MicroHD 1080p WEB-DL][VOSE][600MB]2017[40/??][MULTI] Responder citando Back to top

Añadido Boruto: Naruto Next Generations 1X36
Ver perfil del usuario Enviar mensaje privado
frunfrun
5 Estrellas




Registrado: 18 Nov 2017
Mensajes: 206

spain.png



Desconectado
MensajePublicado: Vie Dic 15, 2017 12:56 am  Re: Boruto T1 [MicroHD 1080p WEB-DL][VOSE][600MB]2017[40/??][MULTI] Responder citando Back to top

Añadido Boruto: Naruto Next Generations 1x37
Ver perfil del usuario Enviar mensaje privado
frunfrun
5 Estrellas




Registrado: 18 Nov 2017
Mensajes: 206

spain.png



Desconectado
MensajePublicado: Mar Dic 26, 2017 2:44 am  Re: Boruto T1 [MicroHD 1080p WEB-DL][VOSE][600MB]2017[40/??][MULTI] Responder citando Back to top

Añadido Boruto: Naruto Next Generations 1x38
Ver perfil del usuario Enviar mensaje privado
frunfrun
5 Estrellas




Registrado: 18 Nov 2017
Mensajes: 206

spain.png



Desconectado
MensajePublicado: Sab Dic 30, 2017 12:57 am  Re: Boruto T1 [MicroHD 1080p WEB-DL][VOSE][600MB]2017[40/??][MULTI] Responder citando Back to top

Añadido Boruto: Naruto Next Generations 1x39
Ver perfil del usuario Enviar mensaje privado
frunfrun
5 Estrellas




Registrado: 18 Nov 2017
Mensajes: 206

spain.png



Desconectado
MensajePublicado: Dom Ene 14, 2018 12:08 am  Re: Boruto T1 [MicroHD 1080p WEB-DL][VOSE][600MB]2017[40/??][MULTI] Responder citando Back to top

Añadido Boruto: Naruto Next Generations 1X40
Ver perfil del usuario Enviar mensaje privado
Mostrar mensajes anteriores:   

Publicar Nuevo Tema   Responder al Tema 

Ver siguiente tema
Ver tema anterior
No puede crear mensajes
No puede responder temas
No puede editar sus mensajes
No puede borrar sus mensajes
No puede votar en encuestas

Foro De Series De Tv Tema RSS Google Sitemap Google XML RSS A PDF    

Seguridad del Foro

65892 Ataques Bloqueados

Powered by phpBB © 2001, 2004 phpBB Group. © Foro De Series